Recommend
First CAM
Amavas 2019 Hindi 720p WEB-DL foxtorrentsAvengers Endgame 2019 480p HDCAM V2 Dual Audio 700MB Hindi-English x264 CineVood ExclusiveAvengers Endgame 2019 720p HDCAM V2 Dual Audio 1.2GB Hindi-English x264 CineVood ExclusiveAvengers Endgame 2019 NEW 720p HDCAM-1XBET

WEB/HDRip
Amavas 2019 Hindi 720p WEB-DL foxtorrentsAvengers Endgame 2019 480p HDCAM V2 Dual Audio 700MB Hindi-English x264 CineVood ExclusiveAvengers Endgame 2019 720p HDCAM V2 Dual Audio 1.2GB Hindi-English x264 CineVood ExclusiveAvengers Endgame 2019 NEW 720p HDCAM-1XBET

Bluray/DVDs
Amavas 2019 Hindi 720p WEB-DL foxtorrentsAvengers Endgame 2019 480p HDCAM V2 Dual Audio 700MB Hindi-English x264 CineVood ExclusiveAvengers Endgame 2019 720p HDCAM V2 Dual Audio 1.2GB Hindi-English x264 CineVood ExclusiveAvengers Endgame 2019 NEW 720p HDCAM-1XBET

TV
Amavas 2019 Hindi 720p WEB-DL foxtorrentsAvengers Endgame 2019 480p HDCAM V2 Dual Audio 700MB Hindi-English x264 CineVood ExclusiveAvengers Endgame 2019 720p HDCAM V2 Dual Audio 1.2GB Hindi-English x264 CineVood ExclusiveAvengers Endgame 2019 NEW 720p HDCAM-1XBET


Torrent Details For "Outpost Black Sun 2012 x264 720p Esub BluRay Dual Audio English Hindi GOPISAHI"

Torrent details
Cover
Download
Name:
Outpost Black Sun 2012 x264 720p Esub BluRay Dual Audio English Hindi GOPISAHI
Controls:
Category:
Movies > Hollywood Dub
Total Size:
647.32 MB
Info Hash:
8a2b6d8eb5ad2eabb41bcc384adf6e5c91058e6c
Added By:
Unknown/NA
Added:
24-04-2019 07:59:21
Views:
385
Health:
Seeders:
98
Leechers:
612
Completed:
62



Description
 https://www.gopisahi.xyz/



Outpost Black Sun 2012 x264 720p Esub BluRay Dual Audio English Hindi GOPISAHI

Format                         : Matroska
Format version                 : Version 4 / Version 2
File size                      : 647 MiB
Duration                       : 1 h 41 min
Overall bit rate               : 895 kb/s
Movie name                     : Outpost Black Sun 2012 GOPISAHI
Encoded date                   : UTC 2019-04-24 05:57:25

Video
Format                         : AVC
Format/Info                    : Advanced Video Codec
Format profile                 : [email protected]
Codec ID                       : V_MPEG4/ISO/AVC
Duration                       : 1 h 41 min
Bit rate                       : 699 kb/s
Width                          : 1 280 pixels
Height                         : 532 pixels
Display aspect ratio           : 2.40:1
Frame rate mode                : Constant
Frame rate                     : 23.976 (24000/1001) FPS
Color space                    : YUV
Chroma subsampling             : 4:2:0
Bit depth                      : 8 bits
Scan type                      : Progressive
Bits/(Pixel*Frame)             : 0.043
Stream size                    : 505 MiB (78%)
Title                          : GOPISAHI
Writing library                : x264 core 157 r2935 545de2f

Format                         : AAC
Duration                       : 1 h 41 min
Bit rate                       : 96.0 kb/s
Channel(s)                     : 2 channels
Channel positions              : Front: L R
Sampling rate                  : 48.0 kHz
Frame rate                     : 46.875 FPS (1024 SPF)
Compression mode               : Lossy
Delay relative to video        : -21 ms
Stream size                    : 69.9 MiB (11%)
Title                          : GOPISAHI
Language                       : Hindi

Audio #2
Format                         : AAC
Duration                       : 1 h 41 min
Bit rate                       : 96.0 kb/s
Channel(s)                     : 2 channels
Channel positions              : Front: L R
Sampling rate                  : 48.0 kHz
Frame rate                     : 46.875 FPS (1024 SPF)
Compression mode               : Lossy
Delay relative to video        : -12 ms
Stream size                    : 69.7 MiB (11%)
Title                          : GOPISAHI
Language                       : English

Text
Language                       : English





Comments

No comments still posted

Top
Copyright 2019 FOXTorrents.net -|- Page Generated In 0.781782 secs.
-|- RSS Feed -|- Feed Info
HERE torrent = $id"); $subrow = mysql_fetch_array($subres); $commcount = $subrow[0]; if ($commcount) { list($pagertop, $pagerbottom, $limit) = pager(10, $commcount, "torrents-details.php?id=$id&"); $commquery = "SELECT comments.id, text, user, comments.added, avatar, signature, username, title, class, uploaded, downloaded, privacy, donated FROM comments LEFT JOIN users ON comments.user = users.id WHERE torrent = $id ORDER BY comments.id $limit"; $commres = SQL_Query_exec($commquery); }else{ unset($commres); } if ($commcount) { print($pagertop); commenttable($commres, 'torrent'); print($pagerbottom); }else { print("
" .T_("NOCOMMENTS"). "
\n"); } require_once("backend/bbcode.php"); if ($CURUSER) { echo "
"; echo "
"; echo textbbcode("comment","body")."
"; echo "